<?xml version="1.0" standalone="no"?>
<!DOCTYPE svg PUBLIC "-//W3C//DTD SVG 1.1//EN" "http://www.w3.org/Graphics/SVG/1.1/DTD/svg11.dtd">
<svg xmlns="http://www.w3.org/2000/svg">
<defs >
<font id="TitilliumWeb" horiz-adv-x="477" ><font-face
    font-family="Titillium Web"
    units-per-em="1000"
    panose-1="0 0 5 0 0 0 0 0 0 0"
    ascent="1133"
    descent="-388"
    alphabetic="0" />
<glyph unicode=" " glyph-name="space" horiz-adv-x="220" />
<glyph unicode="!" glyph-name="exclam" horiz-adv-x="189" d="M112 230L218 700H295L179 230H112ZM59 0L84 111H160L135 0H59Z" />
<glyph unicode="&quot;" glyph-name="quotedbl" horiz-adv-x="313" d="M303 466H221L273 694H360L303 466Z" />
<glyph unicode="#" glyph-name="numbersign" horiz-adv-x="560" d="M574 180H464L420 0H352L396 180H241L197 0H129L173 180H63L79 244H189L233 422H123L139 486H249L295 666H363L317 486H472L517 666H585L540 486H650L634 422H524L480 244H590L574 180ZM412 244L456
422H301L257 244H412Z" />
<glyph unicode="$" glyph-name="dollar" horiz-adv-x="560" d="M524 219Q524 113 460 52T287 -10Q273 -10 249 -8L205 -120H152L197 -4Q156 1 108 12L95 15L107 73Q164 64 222 58L324 317Q256 341 226 372T196 462Q196 560 259 616T427 672Q451 672 463 671L507
782H561L514 665Q563 657 594 648L605 645L593 590Q542 598 490 603L397 366Q468 340 496 310T524 219ZM448 212Q448 247 432 264T371 300L274 55H290Q365 55 406 96T448 212ZM270 468Q270 436 287 419T350 383L438 607H424Q352 607 311 572T270 468Z" />
<glyph unicode="%" glyph-name="percent" horiz-adv-x="560" d="M295 650Q247 650 226 572Q217 535 217 516Q217 473 251 473Q278 473 294 495T321 554T331 612Q331 650 295 650ZM155 6L515 709L565 694L206 -9L155 6ZM164 564Q198 702 308 702Q391 702 391 621Q391
596 383 563Q365 493 328 458T239 422T166 458Q156 476 156 503T164 564ZM484 280Q568 280 568 199Q568 174 560 141Q542 71 505 36T415 0T342 36Q332 54 332 81T340 142Q374 280 484 280ZM507 189Q507 228 471 228Q445 228 429 208T403 150T393 94Q393 51 427
51Q454 51 470 73T497 132T507 189Z" />
<glyph unicode="&amp;" glyph-name="ampersand" horiz-adv-x="635" d="M443 702Q586 702 586 579Q586 503 539 452T389 361L500 209Q537 268 559 344H631Q601 241 542 157L635 39L583 -7L495 106Q398 -10 264 -10Q164 -10 120 30T75 159T123 308T281 409Q254 460
254 508Q254 600 305 651T443 702ZM275 56Q326 56 374 82T456 156L310 360Q223 327 188 279T153 157Q153 56 275 56ZM387 638T359 602T331 508T360 407Q442 441 475 479T509 575Q509 638 440 638Q387 638 359 602Z" />
<glyph unicode="&apos;" glyph-name="quotesingle" horiz-adv-x="162" d="M220 466H154L206 694H277L220 466Z" />
<glyph unicode="(" glyph-name="parenleft" horiz-adv-x="227" d="M206 394T182 296T158 124Q158 -4 170 -96L173 -124H102Q81 -37 81 83T104 303T161 478Q230 636 284 714L307 748H378Q299 625 235 466Q206 394 182 296Z" />
<glyph unicode=")" glyph-name="parenright" horiz-adv-x="227" d="M166 236T190 334T214 506Q214 634 202 726L199 754H270Q291 667 291 547T268 327T211 152Q142 -6 88 -84L65 -118H-6Q73 5 137 164Q166 236 190 334Z" />
<glyph unicode="*" glyph-name="asterisk" horiz-adv-x="413" d="M492 511H361L401 386L353 371L311 497L204 418L174 458L282 537L176 614L206 656L313 578L353 704L403 688L362 561H492V511Z" />
<glyph unicode="+" glyph-name="plus" horiz-adv-x="560" d="M113 217V285H302V480H371V285H562V217H371V20H302V217H113Z" />
<glyph unicode="," glyph-name="comma" horiz-adv-x="183" d="M49 -129H-12L86 111H169L49 -129Z" />
<glyph unicode="-" glyph-name="hyphen" horiz-adv-x="337" d="M98 233L115 302H362L345 233H98Z" />
<glyph unicode="." glyph-name="period" horiz-adv-x="168" d="M46 0L72 111H148L122 0H46Z" />
<glyph unicode="/" glyph-name="slash" horiz-adv-x="419" d="M112 -10L42 15L469 707L539 681L112 -10Z" />
<glyph unicode="0" glyph-name="zero" horiz-adv-x="560" d="M410 671Q610 671 610 475Q610 348 574 239T465 60T298 -10T152 39T102 182Q102 305 137 415T244 598T410 671ZM409 604Q354 604 309 563T236 458Q180 327 180 192T300 57Q372 57 426 124T506 282T532
467Q532 604 409 604Z" />
<glyph unicode="1" glyph-name="one" horiz-adv-x="560" d="M231 526L471 661H537L386 0H310L440 568L251 464L231 526Z" />
<glyph unicode="2" glyph-name="two" horiz-adv-x="560" d="M522 462T522 512T492 583T396 604Q324 604 244 588L215 583L223 642Q323 671 412 671Q600 671 600 526Q600 446 546 380Q501 325 418 259L177 67H506L490 0H67L82 63L338 278Q434 358 478 410Z" />
<glyph unicode="3" glyph-name="three" horiz-adv-x="560" d="M415 671Q593 671 593 535Q593 406 458 351Q498 332 517 303T537 218Q537 114 461 52T267 -10Q224 -10 176 -2T100 16L72 24L89 81Q197 57 274 57T405 100T459 214Q459 308 343 309H214L229 370L359
372Q412 373 463 415T515 509T488 583T410 604Q328 604 241 590L214 585L221 641Q317 671 415 671Z" />
<glyph unicode="4" glyph-name="four" horiz-adv-x="560" d="M359 -2L388 124H77L91 181L405 660H490L173 189H403L453 405H529L479 189H559L543 124H464L435 -2H359Z" />
<glyph unicode="5" glyph-name="five" horiz-adv-x="560" d="M385 414Q556 414 556 268Q556 150 477 71T282 -9Q237 -9 184 -1T100 16L70 25L89 86Q201 58 281 58T420 116T478 256Q478 347 363 347Q332 347 293 337T231 316L208 305L148 317L253 660H630L615 593H301L227
371Q318 414 385 414Z" />
<glyph unicode="6" glyph-name="six" horiz-adv-x="560" d="M610 588Q530 604 467 604T362 584T293 528Q240 460 214 371Q306 414 394 414T525 372T569 254Q569 135 499 63T303 -10Q212 -10 162 48T112 217Q112 340 168 456Q231 589 339 642Q399 671 470 671Q539
671 610 656L633 651L610 588ZM371 347Q334 347 292 337T225 317L201 307Q191 271 191 207T219 100T306 57Q395 57 443 108T491 240Q491 295 463 321T371 347Z" />
<glyph unicode="7" glyph-name="seven" horiz-adv-x="560" d="M216 592L232 660H630L603 546L216 -13L146 10L529 556L537 592H216Z" />
<glyph unicode="8" glyph-name="eight" horiz-adv-x="560" d="M440 671Q540 671 589 636T639 537T598 421T483 345Q534 324 552 293T571 227T563 165T532 104T477 47T391 6T270 -11Q66 -11 66 131T230 345Q187 369 173 394T158 457Q158 542 230 606T440 671ZM287
56Q386 56 438 106T491 204T470 272T397 308H297Q235 290 192 251T149 145Q149 56 287 56ZM423 604Q329 604 283 562T236 463Q236 432 253 411T313 373H413Q465 388 510 424T556 513Q556 604 423 604Z" />
<glyph unicode="9" glyph-name="nine" horiz-adv-x="560" d="M427 671Q595 671 595 468Q595 420 585 362Q558 173 465 82T236 -10Q166 -10 101 6L78 11L104 78Q176 61 258 61T403 117T494 285Q375 249 309 249Q143 249 143 394Q143 416 147 441Q164 538 239 604T427
671ZM220 406Q220 318 333 318Q390 318 482 342L512 350Q527 410 527 457Q527 600 410 600Q341 600 289 558T224 445Q220 424 220 406Z" />
<glyph unicode=":" glyph-name="colon" horiz-adv-x="171" d="M123 330L149 441H225L199 330H123ZM47 0L73 111H149L123 0H47Z" />
<glyph unicode=";" glyph-name="semicolon" horiz-adv-x="201" d="M-2 -129L96 111H179L59 -129H-2ZM142 330L168 441H244L218 330H142Z" />
<glyph unicode="&lt;" glyph-name="less" horiz-adv-x="560" d="M523 409L184 252L523 92V13L106 218V284L523 487V409Z" />
<glyph unicode="=" glyph-name="equal" horiz-adv-x="560" d="M122 309V378H554V309H122ZM122 124V193H554V124H122Z" />
<glyph unicode="&gt;" glyph-name="greater" horiz-adv-x="560" d="M490 252L151 409V487L568 284V218L151 13V92L490 252Z" />
<glyph unicode="?" glyph-name="question" horiz-adv-x="414" d="M504 571Q504 500 472 457T340 336Q271 283 262 235L254 196H183Q184 229 190 258Q201 319 291 388Q371 451 397 484T424 566Q424 634 323 634Q269 634 202 620L179 616L185 677Q273 702 339 702Q504
702 504 571ZM141 1L166 117H243L217 1H141Z" />
<glyph unicode="@" glyph-name="at" horiz-adv-x="933" d="M639 721Q734 721 802 699T910 638Q982 568 982 442Q982 378 958 275T897 104T821 13T724 -10Q638 -10 626 46Q514 -10 435 -10Q395 -10 369 5T330 42Q310 76 310 138Q310 170 319 216Q373 510 573 510Q624
510 768 485Q687 155 687 100Q687 77 699 69T740 61Q790 61 825 111T894 307Q913 384 913 429T902 516T859 588Q790 655 626 655Q439 655 334 563T178 265Q159 184 159 120Q159 -135 459 -135L595 -126L582 -192Q486 -201 422 -201T294 -182T190 -129Q107 -58 92
46Q87 85 87 111T89 172T105 265Q163 512 289 616T639 721ZM453 57Q519 57 613 109Q619 173 682 431Q621 445 570 445Q499 445 459 387T394 215Q386 168 386 136T402 80T453 57Z" />
<glyph unicode="A" glyph-name="A" horiz-adv-x="554" d="M24 0L369 692H518L532 0H456L450 177H191L102 0H24ZM414 624L223 244H451L444 624H414Z" />
<glyph unicode="B" glyph-name="B" horiz-adv-x="577" d="M460 692Q543 692 584 660T626 556T591 433T497 358Q581 325 581 239Q581 130 512 65T316 0H78L237 692H460ZM386 320H228L170 67H332Q411 67 456 113T501 237Q501 320 386 320ZM447 625H298L243 386H397Q464
386 506 431T548 545Q548 589 525 607T447 625Z" />
<glyph unicode="C" glyph-name="C" horiz-adv-x="504" d="M305 -10Q112 -10 112 188Q112 366 194 524Q234 602 303 652T461 702Q527 702 603 684L627 679L610 619Q533 634 464 634T343 593T259 486Q192 348 192 192Q192 124 221 91T315 58Q391 58 455 70L478 75L473
12Q384 -10 305 -10Z" />
<glyph unicode="D" glyph-name="D" horiz-adv-x="607" d="M317 0H78L238 692H460Q555 692 603 643T652 486Q652 347 600 224Q573 160 535 111T441 31T317 0ZM541 281T556 351T572 490T542 591T445 624H298L171 68H328Q387 68 435 110T512 216Z" />
<glyph unicode="E" glyph-name="E" horiz-adv-x="505" d="M78 0L237 692H623L607 624H298L243 386H497L481 318H228L170 68H479L464 0H78Z" />
<glyph unicode="F" glyph-name="F" horiz-adv-x="482" d="M78 0L238 692H615L599 624H298L236 351H492L476 284H220L154 0H78Z" />
<glyph unicode="G" glyph-name="G" horiz-adv-x="572" d="M322 -10Q113 -10 113 186Q113 383 198 536Q240 611 310 656T469 702Q554 702 640 678L668 671L649 613Q549 634 459 634Q405 634 360 606T285 531T234 424Q193 312 193 185T330 58Q374 58 433 70L451
73L503 293H398L413 359H595L515 17Q427 -10 322 -10Z" />
<glyph unicode="H" glyph-name="H" horiz-adv-x="624" d="M469 0L542 316H227L154 0H78L238 692H314L243 383H558L629 692H706L546 0H469Z" />
<glyph unicode="I" glyph-name="I" horiz-adv-x="232" d="M78 0L238 692H314L154 0H78Z" />
<glyph unicode="J" glyph-name="J" horiz-adv-x="265" d="M350 692L218 118Q198 32 179 -4T123 -55T7 -70L19 -2Q81 -2 102 19T142 124L274 692H350Z" />
<glyph unicode="K" glyph-name="K" horiz-adv-x="521" d="M422 0L324 307L224 304L154 0H78L238 692H314L240 372L331 375L576 692H662L393 343L503 0H422Z" />
<glyph unicode="L" glyph-name="L" horiz-adv-x="433" d="M427 0H78L238 692H314L170 68H442L427 0Z" />
<glyph unicode="M" glyph-name="M" horiz-adv-x="780" d="M78 0L238 692H367L411 106L731 692H862L702 0H626L771 624H760L434 25H354L308 624H298L154 0H78Z" />
<glyph unicode="N" glyph-name="N" horiz-adv-x="631" d="M78 0L238 692H374L478 79H497L638 692H713L553 0H422L314 617H294L151 0H78Z" />
<glyph unicode="O" glyph-name="O" horiz-adv-x="628" d="M193 123T225 91T329 58T451 98Q519 154 555 266T592 490Q592 565 559 599T457 634T342 597Q273 540 233 424T193 216ZM672 360T630 239T509 54T324 -10T165 38T114 206T155 443T274 631T457 702Q672 702
672 495Q672 360 630 239Z" />
<glyph unicode="P" glyph-name="P" horiz-adv-x="547" d="M359 232H208L154 0H78L238 692H456Q545 692 586 652T627 528Q627 395 557 314T359 232ZM371 300Q456 300 501 364T547 527Q547 576 524 600T447 624H298L224 300H371Z" />
<glyph unicode="Q" glyph-name="Q" horiz-adv-x="628" d="M326 -10Q216 -10 165 38T114 206T155 443T274 631T457 702Q672 702 672 495Q672 360 630 239T506 51Q486 34 460 21L508 -121L435 -145L390 -3Q355 -10 326 -10ZM193 123T225 91T329 58T451 98Q519 154
555 266T592 490Q592 565 559 599T457 634T342 597Q273 540 233 424T193 216Z" />
<glyph unicode="R" glyph-name="R" horiz-adv-x="564" d="M449 692Q540 692 584 653T629 516T576 353T451 269L527 0H450L379 259H215L154 0H78L238 692H449ZM549 523Q549 579 524 602T441 625H299L230 326H377Q455 326 502 381T549 523Z" />
<glyph unicode="S" glyph-name="S" horiz-adv-x="499" d="M577 617Q471 635 398 635T283 598T240 489Q240 449 264 431T366 386T474 326T505 229Q505 117 438 54T257 -10Q172 -10 85 10L56 16L69 76Q185 58 262 58T382 100T426 222Q426 263 404 282T307 328T197
386T162 483Q162 585 227 643T404 702Q486 702 564 681L590 674L577 617Z" />
<glyph unicode="T" glyph-name="T" horiz-adv-x="469" d="M154 624L170 692H617L601 624H415L271 0H195L339 624H154Z" />
<glyph unicode="U" glyph-name="U" horiz-adv-x="594" d="M189 144Q189 58 317 58Q396 58 435 95T493 211L604 692H681L570 211Q544 97 484 44T320 -10Q113 -10 113 134Q113 183 124 225L232 692H309L199 217Q189 177 189 144Z" />
<glyph unicode="V" glyph-name="V" horiz-adv-x="545" d="M601 692H678L348 0H190L181 692H258L261 68H306L601 692Z" />
<glyph unicode="W" glyph-name="W" horiz-adv-x="829" d="M187 692H263L232 71H258L527 682H611L592 71H618L880 692H957L659 0H526L545 570L297 0H160L187 692Z" />
<glyph unicode="X" glyph-name="X" horiz-adv-x="513" d="M261 692L351 404L575 692H659L383 343L495 0H416L324 287L97 0H12L292 347L181 692H261Z" />
<glyph unicode="Y" glyph-name="Y" horiz-adv-x="493" d="M641 692L348 296L279 0H206L276 302L170 692H248L329 369L558 692H641Z" />
<glyph unicode="Z" glyph-name="Z" horiz-adv-x="495" d="M184 624L200 692H616L592 590L144 92L138 68H470L454 0H38L60 99L508 597L514 624H184Z" />
<glyph unicode="[" glyph-name="bracketleft" horiz-adv-x="276" d="M228 747H423L408 682H289L116 -57H235L218 -122H25L228 747Z" />
<glyph unicode="\" glyph-name="backslash" horiz-adv-x="426" d="M398 8L320 0L188 693L267 701L398 8Z" />
<glyph unicode="]" glyph-name="bracketright" horiz-adv-x="276" d="M193 -121H-2L13 -56H132L305 683H186L203 748H396L193 -121Z" />
<glyph unicode="^" glyph-name="asciicircum" horiz-adv-x="560" d="M480 319L336 586L196 319H116L302 660H369L560 319H480Z" />
<glyph unicode="_" glyph-name="underscore" horiz-adv-x="577" d="M46 -79H494L477 -152H30L46 -79Z" />
<glyph unicode="`" glyph-name="grave" horiz-adv-x="518" d="M316 741L501 648L468 596L280 682L316 741Z" />
<glyph unicode="a" glyph-name="a" horiz-adv-x="500" d="M217 -10Q89 -10 89 139Q89 222 115 304T202 448T341 510Q402 510 508 492L546 485L470 160Q456 104 446 28L442 2L369 -1Q383 85 387 106Q382 97 358 72T314 31T268 3T217 -10ZM459 431Q389 445 339 445T246
394T185 274T166 151T183 76T234 55T308 87T376 153L402 186L459 431Z" />
<glyph unicode="b" glyph-name="b" horiz-adv-x="499" d="M392 510Q467 510 496 470T525 357Q525 262 487 168Q443 60 366 15Q322 -10 278 -10Q194 -10 102 8L69 15L231 718H305L240 434Q289 483 346 502Q370 510 392 510ZM155 68Q225 55 271 55T354 90T410 176Q448
280 448 339T433 421T370 445Q342 445 305 424T246 380L223 359L155 68Z" />
<glyph unicode="c" glyph-name="c" horiz-adv-x="405" d="M355 510Q402 510 462 496L480 491L461 433Q396 445 353 445Q293 445 250 401Q169 320 169 156Q169 106 193 81T272 55Q311 55 364 66L384 70L379 11Q310 -10 241 -10T132 29T92 142Q92 356 208 457Q269
510 355 510Z" />
<glyph unicode="d" glyph-name="d" horiz-adv-x="500" d="M215 -10Q89 -10 89 136Q89 224 117 308T204 451T339 510Q390 510 452 496L472 492L525 718H600L433 0H361L380 89Q371 76 351 57T312 24Q263 -10 215 -10ZM459 430Q393 445 340 445T245 393T185 272T166
137Q166 55 238 55Q268 55 308 84T374 144L399 173L459 430Z" />
<glyph unicode="e" glyph-name="e" horiz-adv-x="462" d="M166 103T192 80T256 56Q327 56 402 72L427 78L421 19Q332 -10 250 -10Q91 -10 91 142Q91 281 154 390Q186 444 239 477T360 510Q508 510 508 388Q508 299 441 264T228 228H177Q166 189 166 146ZM242 287Q344
287 389 308T434 387Q434 447 357 447Q234 447 187 287H242Z" />
<glyph unicode="f" glyph-name="f" horiz-adv-x="309" d="M380 728Q414 728 452 718L464 714L450 656Q410 663 375 663T321 635T284 542L274 500H408L392 435H260L159 0L98 -222H33L185 434H128L144 500H199L210 543Q234 645 271 686T380 728Z" />
<glyph unicode="g" glyph-name="g" horiz-adv-x="468" d="M197 -235Q114 -235 66 -201T18 -104Q18 -19 150 49Q134 65 134 88T148 136T176 174L189 189Q120 221 120 304T175 448T321 510Q367 510 404 498L417 494L565 500L550 436H461Q478 408 478 367Q478 292
422 231T267 170L234 173Q203 133 203 112T222 84T308 68T411 33T447 -50Q447 -127 379 -181T197 -235ZM149 3T119 -27T89 -91T117 -148T208 -171T323 -140T374 -56Q374 -26 353 -13T273 7T189 23Q149 3 119 -27ZM274 232Q337 232 372 274T407 361T386 426T313
447T226 405T191 312Q191 232 274 232Z" />
<glyph unicode="h" glyph-name="h" horiz-adv-x="499" d="M398 510Q456 510 486 476T516 390T495 252L437 0H363L421 249Q439 331 439 369Q439 444 372 444Q323 444 252 371Q236 354 226 342L217 331L141 0H66L232 718H307L236 412Q245 423 260 439T317 483T398 510Z" />
<glyph unicode="i" glyph-name="i" horiz-adv-x="206" d="M66 0L181 500H256L140 0H66ZM204 604L226 694H301L280 604H204Z" />
<glyph unicode="j" glyph-name="j" horiz-adv-x="206" d="M66 0L181 500H256L140 0Q115 -111 84 -146T-63 -235L-87 -175Q2 -129 25 -103T66 0ZM205 602L226 692H301L281 602H205Z" />
<glyph unicode="k" glyph-name="k" horiz-adv-x="445" d="M141 0H66L232 718H307L210 300L274 303L455 500H542L330 268L425 0H346L262 239L195 237L141 0Z" />
<glyph unicode="l" glyph-name="l" horiz-adv-x="215" d="M70 0L236 718H310L145 0H70Z" />
<glyph unicode="m" glyph-name="m" horiz-adv-x="775" d="M438 369Q438 444 370 444Q341 444 303 416T240 360L217 332L140 0H66L181 500H254L236 413Q259 443 290 466Q351 510 399 510Q455 510 480 479Q503 451 508 421Q517 431 533 446T594 485T675 510Q733
510 762 476T792 392T772 252L714 0H639L697 249Q716 325 716 368Q716 444 650 444Q622 444 588 422T532 376L511 354Q508 307 494 252L436 0H361L419 249Q438 325 438 369Z" />
<glyph unicode="n" glyph-name="n" horiz-adv-x="498" d="M397 510Q455 510 485 476T515 388T495 254L436 0H362L420 249Q439 325 439 369Q439 444 371 444Q341 444 303 416T240 360L217 332L140 0H66L181 500H254L236 413Q245 424 259 440T316 483T397 510Z" />
<glyph unicode="o" glyph-name="o" horiz-adv-x="494" d="M343 510Q516 510 516 340Q516 247 487 168T398 40T262 -10Q91 -10 91 154Q91 298 162 404T343 510ZM262 55Q342 55 391 139T441 341Q441 389 417 417T343 445Q265 445 216 358T166 153Q166 55 262 55Z" />
<glyph unicode="p" glyph-name="p" horiz-adv-x="499" d="M396 510Q526 510 526 363Q526 231 462 116Q432 60 383 25T276 -10T162 4L142 9L89 -222H15L181 500H254L235 411Q244 422 259 438T316 482T396 510ZM375 445Q347 445 307 416T242 356L216 327L156 70Q221
55 275 55T370 108T430 229T449 360Q449 445 375 445Z" />
<glyph unicode="q" glyph-name="q" horiz-adv-x="498" d="M217 -10Q153 -10 121 28T88 145T116 306T203 450T338 510Q410 510 510 492L545 485L383 -216H309L379 89Q370 77 350 57T312 24Q263 -10 217 -10ZM458 430Q394 445 341 445T246 394T185 275T165 140Q165
55 240 55Q268 55 308 84T374 142L399 172L458 430Z" />
<glyph unicode="r" glyph-name="r" horiz-adv-x="316" d="M66 0L182 500H256L238 426Q331 493 419 511L399 434Q345 420 254 374L224 359L141 0H66Z" />
<glyph unicode="s" glyph-name="s" horiz-adv-x="429" d="M470 431Q375 445 318 445T229 417T198 348Q198 324 216 312T299 283T396 245T427 172Q427 84 366 37T209 -10Q145 -10 74 8L51 13L65 71Q157 55 217 55T314 81T350 157Q350 185 331 196T249 223T154 261T123
330Q123 410 179 460T320 510Q395 510 462 494L485 489L470 431Z" />
<glyph unicode="t" glyph-name="t" horiz-adv-x="318" d="M191 101Q191 55 241 55L318 61L313 4Q261 -10 214 -10T140 15T113 82T129 188L187 435H121L138 500H203L238 648H313L277 500H417L401 435H261L203 184Q191 136 191 101Z" />
<glyph unicode="u" glyph-name="u" horiz-adv-x="498" d="M216 -10Q158 -10 128 24T98 112T118 246L177 500H251L193 251Q174 175 174 131Q174 56 242 56Q272 56 310 84T372 140L396 168L473 500H547L432 0H359L377 87Q368 76 354 60T297 17T216 -10Z" />
<glyph unicode="v" glyph-name="v" horiz-adv-x="454" d="M139 500H213L221 64H252L469 500H546L292 0H152L139 500Z" />
<glyph unicode="w" glyph-name="w" horiz-adv-x="731" d="M144 500H219L210 65H229L434 490H522L526 65H545L741 500H817L590 0H457L454 393L267 0H137L144 500Z" />
<glyph unicode="x" glyph-name="x" horiz-adv-x="419" d="M137 500H214L281 303L437 500H517L308 244L397 0H319L254 193L100 0H19L225 250L137 500Z" />
<glyph unicode="y" glyph-name="y" horiz-adv-x="454" d="M139 500H213L221 64H251L469 500H546L181 -221H105L220 0H152L139 500Z" />
<glyph unicode="z" glyph-name="z" horiz-adv-x="418" d="M138 435L154 500H495L481 436L140 65H395L380 0H38L50 64L390 435H138Z" />
<glyph unicode="{" glyph-name="braceleft" horiz-adv-x="313" d="M230 222Q230 204 206 121T182 10Q182 -59 271 -59L252 -127Q108 -124 108 -12Q108 19 131 103T155 210Q155 258 83 285L97 344Q162 361 184 385T218 459Q221 472 227 504Q242 587 247 599Q272
679 320 714T460 753L448 685Q384 681 354 654T310 570Q309 564 300 513T288 450Q274 388 248 359T167 312Q230 283 230 222Z" />
<glyph unicode="|" glyph-name="bar" horiz-adv-x="312" d="M176 -222V718H250V-222H176Z" />
<glyph unicode="}" glyph-name="braceright" horiz-adv-x="312" d="M226 401Q226 420 250 503T274 613Q274 682 185 682L204 750Q348 747 348 635Q348 604 325 520T301 412Q301 365 373 338L359 279Q294 262 272 238T238 164Q235 151 229 118Q214 36 209 24Q184
-56 136 -91T-4 -130L8 -62Q72 -58 102 -31T146 53Q147 59 156 110T168 173Q182 235 208 264T289 311Q226 340 226 401Z" />
<glyph unicode="~" glyph-name="asciitilde" horiz-adv-x="560" d="M439 195Q412 195 337 226T243 257T198 246T154 222L137 210L127 272Q189 325 243 325Q272 325 346 295T440 264Q476 264 527 298L544 310L554 249Q491 195 439 195Z" />
<glyph unicode="&#xa0;" glyph-name="uni00A0" horiz-adv-x="220" />
<glyph unicode="&#xa1;" glyph-name="exclamdown" horiz-adv-x="178" d="M187 270L81 -200H4L120 270H187ZM240 500L215 389H139L164 500H240Z" />
<glyph unicode="&#xa2;" glyph-name="cent" horiz-adv-x="560" d="M237 37T207 55T167 103T156 151T156 188T167 248Q194 352 250 406T385 463L413 582H476L447 462L539 452L519 386Q438 393 402 393Q277 393 241 248Q231 204 231 174T256 126T335 107L459 113L445
48Q388 41 348 40L320 -80H257L284 36Q237 37 207 55Z" />
<glyph unicode="&#xa3;" glyph-name="sterling" horiz-adv-x="560" d="M591 604Q521 612 485 612T432 604T405 586T386 553Q375 526 358 464L348 421H542L527 355H333L267 65H405L481 82L480 18L402 0H80L95 65H191L256 355H181L197 421H272L284 472Q310 582 348
630T473 679Q516 679 586 666L607 662L591 604Z" />
<glyph unicode="&#xa4;" glyph-name="currency" horiz-adv-x="560" d="M392 71T338 71T238 101L168 30L116 83L186 153Q157 198 157 252T186 351L116 421L168 474L238 403Q284 432 338 432T437 403L507 474L560 421L489 350Q518 305 518 252T489 153L560 83L507
30L437 101Q392 71 338 71ZM292 142T338 142T416 174T448 252T416 330T338 362T260 330T228 252T260 174Z" />
<glyph unicode="&#xa5;" glyph-name="yen" horiz-adv-x="560" d="M141 310L157 377H282L168 661H250L363 382L594 661H693L454 377H576L561 310H401L387 293L372 227H542L526 160H356L319 0H243L280 160H106L122 227H295L311 294L307 310H141Z" />
<glyph unicode="&#xa6;" glyph-name="brokenbar" horiz-adv-x="318" d="M179 718H253V344H179V718ZM179 156H253V-222H179V156Z" />
<glyph unicode="&#xa7;" glyph-name="section" horiz-adv-x="470" d="M528 567Q429 581 373 581T282 551T246 468Q246 449 252 437T277 417Q305 405 358 395Q483 371 483 283Q483 209 404 119Q421 97 421 69T416 18T396 -36T356 -91T290 -131T208 -148Q141 -148
60 -136L33 -132L55 -66Q156 -80 212 -80T307 -44T345 29T325 78T233 105T132 147T103 216T123 296Q155 356 190 380Q170 404 170 456Q170 530 230 590T396 650Q457 650 522 638L546 633L528 567ZM180 242Q180 214 199 200T267 176Q330 162 354 149Q363 156 384
197T406 264T385 305T306 331T235 352Q180 283 180 242Z" />
<glyph unicode="&#xa8;" glyph-name="dieresis" horiz-adv-x="680" d="M242 620L263 713H325L303 620H242ZM425 620L445 713H507L485 620H425Z" />
<glyph unicode="&#xa9;" glyph-name="copyright" horiz-adv-x="644" d="M309 161T234 240T159 434T234 628T423 707T611 628T686 434T612 240T423 161ZM203 530T203 434T265 272T422 205T579 271T642 434T579 597T423 664T266 597ZM427 591Q465 591 503 581L500
528Q461 534 427 534T381 512T369 436T382 358T429 333L500 340L503 288Q466 276 425 276Q361 276 335 313T309 433T335 553T427 591Z" />
<glyph unicode="&#xaa;" glyph-name="ordfeminine" horiz-adv-x="344" d="M348 577Q348 603 308 603L192 596L200 644Q274 659 327 659T402 637Q416 623 416 602T412 560L380 422Q386 410 405 406L392 357Q354 357 339 363T315 383Q254 357 208 357T145 382Q134
398 134 415T138 449Q149 491 175 511T253 535L340 541L346 563Q348 571 348 577ZM202 436Q202 411 231 411Q259 411 301 424L314 428L330 495L255 490Q212 487 204 450Q202 442 202 436Z" />
<glyph unicode="&#xab;" glyph-name="guillemotleft" horiz-adv-x="446" d="M497 409L475 332L344 245L432 149L412 80L270 229L284 267L497 409ZM307 409L285 332L154 245L242 149L222 80L80 229L94 267L307 409Z" />
<glyph unicode="&#xac;" glyph-name="logicalnot" horiz-adv-x="560" d="M123 342H551V117H481V274H123V342Z" />
<glyph unicode="&#xae;" glyph-name="registered" horiz-adv-x="644" d="M309 161T234 240T159 434T234 628T423 707T611 628T686 434T612 240T424 161ZM329 664T266 597T203 435T266 272T422 205T579 271T642 434T579 597T423 664ZM370 389V282H313V585H423Q479
585 507 563T536 497T525 431T486 397L541 282H479L430 389H370ZM370 538V436H429Q480 436 480 487T418 538H370Z" />
<glyph unicode="&#xaf;" glyph-name="overscore" horiz-adv-x="439" d="M229 639L243 698H518L503 639H229Z" />
<glyph unicode="&#xb0;" glyph-name="degree" horiz-adv-x="560" d="M345 420T306 458T267 560T306 663T408 702T511 663T550 561T511 459T409 420ZM317 603T317 561T342 494T408 468T476 493T502 560T476 628T409 654T342 629Z" />
<glyph unicode="&#xb1;" glyph-name="plusminus" horiz-adv-x="560" d="M103 293V361H291V487H361V361H552V293H361V166H291V293H103ZM103 106H552V38H103V106Z" />
<glyph unicode="&#xb2;" glyph-name="twosuperior" horiz-adv-x="280" d="M327 800Q409 800 409 742Q409 665 314 596L238 536H365L351 478H141L155 534L265 620Q327 669 336 703Q341 722 330 730T296 739L209 729L221 788Q284 800 327 800Z" />
<glyph unicode="&#xb3;" glyph-name="threesuperior" horiz-adv-x="280" d="M413 742Q413 680 351 641Q374 633 379 623T384 599T380 565Q355 468 248 468Q204 468 154 476L138 478L156 534Q212 527 258 527T314 568Q316 577 316 583Q316 610 279 610H213L226
664H291Q305 664 320 677T340 707T336 733T303 741L210 734L220 790Q282 800 325 800Q413 800 413 742Z" />
<glyph unicode="&#xb4;" glyph-name="acute" horiz-adv-x="546" d="M279 596L272 654L500 748L507 682L279 596Z" />
<glyph unicode="&#xb5;" glyph-name="mu" horiz-adv-x="560" d="M207 131Q207 56 275 56Q305 56 343 84T406 140L429 168L506 500H580L465 0H392L410 87Q401 76 387 60T330 17T245 -10T172 14L117 -222H43L210 500H284L232 278H233L215 200Q207 162 207 131Z" />
<glyph unicode="&#xb6;" glyph-name="paragraph" horiz-adv-x="557" d="M145 473Q145 558 209 629T369 700H679L665 636H596L445 0H382L533 636H424L272 0H208L289 332Q215 333 180 373T145 473Z" />
<glyph unicode="&#xb7;" glyph-name="middot" horiz-adv-x="170" d="M103 245L129 362H206L180 245H103Z" />
<glyph unicode="&#xb8;" glyph-name="cedilla" horiz-adv-x="791" d="M418 -45Q503 -45 503 -100Q503 -111 500 -124Q481 -211 392 -211Q349 -211 322 -206L312 -204L325 -153Q362 -156 387 -156Q428 -156 438 -120Q443 -101 434 -94T404 -87H365L386 5H426L413 -45H418Z" />
<glyph unicode="&#xb9;" glyph-name="onesuperior" horiz-adv-x="280" d="M202 720L321 790H381L304 478H240L300 720L220 673L202 720Z" />
<glyph unicode="&#xba;" glyph-name="ordmasculine" horiz-adv-x="341" d="M321 659Q365 659 394 641T426 584Q428 574 428 556T420 507Q402 427 362 391T260 355Q146 355 146 453Q146 479 154 511Q173 590 213 624T321 659ZM264 415Q300 415 320 436T350 496T360
557Q360 600 309 600Q273 600 253 581T223 522T213 463Q213 415 264 415Z" />
<glyph unicode="&#xbb;" glyph-name="guillemotright" horiz-adv-x="480" d="M286 80L308 157L439 244L351 340L371 409L513 260L499 222L286 80ZM63 80L85 157L216 244L128 340L148 409L290 260L276 222L63 80Z" />
<glyph unicode="&#xbc;" glyph-name="onequarter" horiz-adv-x="594" d="M178 720L297 790H357L280 478H216L276 720L196 673L178 720ZM178 -10L108 15L535 707L605 681L178 -10ZM484 0L495 48H354L367 103L489 312H561L437 107H510L538 195H596L573 107H600L586
48H559L547 0H484Z" />
<glyph unicode="&#xbd;" glyph-name="onehalf" horiz-adv-x="617" d="M178 720L297 790H357L280 478H216L276 720L196 673L178 720ZM178 -10L108 15L535 707L605 681L178 -10ZM566 322Q648 322 648 264Q648 187 553 118L477 58H604L590 0H380L394 56L504 142Q566
191 575 225Q580 244 569 252T535 261L448 251L460 310Q523 322 566 322Z" />
<glyph unicode="&#xbe;" glyph-name="threequarters" horiz-adv-x="609" d="M409 742Q409 680 347 641Q370 633 375 623T380 599T376 565Q351 468 244 468Q200 468 150 476L134 478L152 534Q208 527 254 527T310 568Q312 577 312 583Q312 610 275 610H209L222
664H287Q301 664 316 677T336 707T332 733T299 741L206 734L216 790Q278 800 321 800Q409 800 409 742ZM194 -10L124 15L551 707L621 681L194 -10ZM501 0L512 48H371L384 103L506 312H578L454 107H527L555 195H613L590 107H617L603 48H576L564 0H501Z" />
<glyph unicode="&#xbf;" glyph-name="questiondown" horiz-adv-x="407" d="M23 -70Q23 1 55 44T187 165Q256 218 265 266L273 305H344Q343 272 337 243Q326 182 236 113Q156 50 130 17T103 -65Q103 -133 204 -133Q258 -133 326 -120L348 -115L342 -176Q254 -201
188 -201Q23 -201 23 -70ZM386 500L361 384H284L310 500H386Z" />
<glyph unicode="&#xc0;" glyph-name="Agrave" horiz-adv-x="554" d="M363 930L548 836L514 780L326 866L363 930ZM24 0L369 692H518L532 0H456L450 177H191L102 0H24ZM414 624L223 244H451L444 624H414Z" />
<glyph unicode="&#xc1;" glyph-name="Aacute" horiz-adv-x="554" d="M388 785L379 842L607 936L616 871L388 785ZM24 0L369 692H518L532 0H456L450 177H191L102 0H24ZM414 624L223 244H451L444 624H414Z" />
<glyph unicode="&#xc2;" glyph-name="Acircumflex" horiz-adv-x="554" d="M303 793L467 931H508L604 793H535L481 874L385 793H303ZM24 0L369 692H518L532 0H456L450 177H191L102 0H24ZM414 624L223 244H451L444 624H414Z" />
<glyph unicode="&#xc3;" glyph-name="Atilde" horiz-adv-x="554" d="M530 804Q507 804 456 832T392 860Q369 860 319 824L302 811L300 865Q367 925 405 925Q432 925 482 898T544 870Q563 870 611 904L627 916L630 863Q567 804 530 804ZM24 0L369 692H518L532 0H456L450
177H191L102 0H24ZM414 624L223 244H451L444 624H414Z" />
<glyph unicode="&#xc4;" glyph-name="Adieresis" horiz-adv-x="554" d="M341 814L362 907H424L401 814H341ZM528 814L550 907H612L589 814H528ZM24 0L369 692H518L532 0H456L450 177H191L102 0H24ZM414 624L223 244H451L444 624H414Z" />
<glyph unicode="&#xc5;" glyph-name="Aring" horiz-adv-x="554" d="M358 669Q346 685 346 704T350 740Q363 790 397 815T478 840T548 815Q563 799 563 778T559 740Q546 694 518 670L532 0H456L450 177H191L102 0H24L358 669ZM414 624L223 244H451L444 624H414ZM400
740Q398 733 398 724T406 704T437 692H447Q497 694 508 740Q509 747 509 757T499 777T466 788Q412 788 400 740Z" />
<glyph unicode="&#xc6;" glyph-name="AE" horiz-adv-x="780" d="M348 0L389 177H188L98 0H25L370 696H900L885 624L568 626L511 386H771L756 317H495L437 72H752L737 0H348ZM408 624L221 247H406L496 624H408Z" />
<glyph unicode="&#xc7;" glyph-name="Ccedilla" horiz-adv-x="504" d="M296 -45Q381 -45 381 -100Q381 -111 378 -124Q359 -211 270 -211Q227 -211 200 -206L190 -204L203 -153Q240 -156 265 -156Q306 -156 316 -120Q321 -101 312 -94T282 -87H243L261 -7Q112
14 112 188Q112 366 194 524Q234 602 303 652T461 702Q527 702 603 684L627 679L610 619Q533 634 464 634T343 593T259 486Q192 348 192 192Q192 124 221 91T315 58Q391 58 455 70L478 75L473 12Q384 -10 305 -10H300L291 -45H296Z" />
<glyph unicode="&#xc8;" glyph-name="Egrave" horiz-adv-x="505" d="M369 930L554 836L520 780L332 866L369 930ZM78 0L237 692H623L607 624H298L243 386H497L481 318H228L170 68H479L464 0H78Z" />
<glyph unicode="&#xc9;" glyph-name="Eacute" horiz-adv-x="505" d="M377 785L368 842L596 936L605 871L377 785ZM78 0L237 692H623L607 624H298L243 386H497L481 318H228L170 68H479L464 0H78Z" />
<glyph unicode="&#xca;" glyph-name="Ecircumflex" horiz-adv-x="505" d="M342 791L506 929H547L643 791H574L520 872L424 791H342ZM78 0L237 692H623L607 624H298L243 386H497L481 318H228L170 68H479L464 0H78Z" />
<glyph unicode="&#xcb;" glyph-name="Edieresis" horiz-adv-x="505" d="M332 814L353 907H415L392 814H332ZM519 814L541 907H603L580 814H519ZM78 0L237 692H623L607 624H298L243 386H497L481 318H228L170 68H479L464 0H78Z" />
<glyph unicode="&#xcc;" glyph-name="Igrave" horiz-adv-x="232" d="M186 930L371 836L337 780L149 866L186 930ZM78 0L238 692H314L154 0H78Z" />
<glyph unicode="&#xcd;" glyph-name="Iacute" horiz-adv-x="232" d="M239 785L230 842L458 936L467 871L239 785ZM78 0L238 692H314L154 0H78Z" />
<glyph unicode="&#xce;" glyph-name="Icircumflex" horiz-adv-x="232" d="M143 791L307 929H348L444 791H375L321 872L225 791H143ZM78 0L238 692H314L154 0H78Z" />
<glyph unicode="&#xcf;" glyph-name="Idieresis" horiz-adv-x="232" d="M173 819L194 912H256L233 819H173ZM360 819L382 912H444L421 819H360ZM78 0L238 692H314L154 0H78Z" />
<glyph unicode="&#xd0;" glyph-name="Eth" horiz-adv-x="611" d="M321 0H82L153 309H87L102 386H171L242 692H464Q559 692 607 643T656 486Q656 347 604 224Q577 160 539 111T445 31T321 0ZM545 281T560 351T576 490T546 591T449 624H302L247 386H389L372 309H230L175
68H332Q391 68 439 110T516 216Z" />
<glyph unicode="&#xd1;" glyph-name="Ntilde" horiz-adv-x="631" d="M569 802Q546 802 494 830T430 858Q408 858 358 822L341 809L339 863Q406 923 444 923Q471 923 521 896T582 868Q602 868 650 902L666 914L669 861Q606 802 569 802ZM78 0L238 692H374L478 79H497L638
692H713L553 0H422L314 617H294L151 0H78Z" />
<glyph unicode="&#xd2;" glyph-name="Ograve" horiz-adv-x="628" d="M413 930L598 836L564 780L376 866L413 930ZM193 123T225 91T329 58T451 98Q519 154 555 266T592 490Q592 565 559 599T457 634T342 597Q273 540 233 424T193 216ZM672 360T630 239T509 54T324
-10T165 38T114 206T155 443T274 631T457 702Q672 702 672 495Q672 360 630 239Z" />
<glyph unicode="&#xd3;" glyph-name="Oacute" horiz-adv-x="628" d="M193 123T225 91T329 58T451 98Q519 154 555 266T592 490Q592 565 559 599T457 634T342 597Q273 540 233 424T193 216ZM672 360T630 239T509 54T324 -10T165 38T114 206T155 443T274 631T457
702Q672 702 672 495Q672 360 630 239ZM425 785L416 842L644 936L653 871L425 785Z" />
<glyph unicode="&#xd4;" glyph-name="Ocircumflex" horiz-adv-x="628" d="M193 123T225 91T329 58T451 98Q519 154 555 266T592 490Q592 565 559 599T457 634T342 597Q273 540 233 424T193 216ZM672 360T630 239T509 54T324 -10T165 38T114 206T155 443T274 631T457
702Q672 702 672 495Q672 360 630 239ZM347 793L511 931H552L648 793H579L525 874L429 793H347Z" />
<glyph unicode="&#xd5;" glyph-name="Otilde" horiz-adv-x="628" d="M581 802Q558 802 506 830T442 858Q420 858 370 822L353 809L351 863Q418 923 456 923Q483 923 533 896T594 868Q614 868 662 902L678 914L681 861Q618 802 581 802ZM193 123T225 91T329 58T451
98Q519 154 555 266T592 490Q592 565 559 599T457 634T342 597Q273 540 233 424T193 216ZM672 360T630 239T509 54T324 -10T165 38T114 206T155 443T274 631T457 702Q672 702 672 495Q672 360 630 239Z" />
<glyph unicode="&#xd6;" glyph-name="Odieresis" horiz-adv-x="628" d="M371 812L392 905H461L439 812H371ZM560 812L581 905H649L628 812H560ZM193 123T225 91T329 58T451 98Q519 154 555 266T592 490Q592 565 559 599T457 634T342 597Q273 540 233 424T193 216ZM672
360T630 239T509 54T324 -10T165 38T114 206T155 443T274 631T457 702Q672 702 672 495Q672 360 630 239Z" />
<glyph unicode="&#xd7;" glyph-name="multiply" horiz-adv-x="560" d="M177 459L337 297L498 460L546 412L384 251L546 90L498 42L337 204L177 42L128 90L291 251L129 411L177 459Z" />
<glyph unicode="&#xd8;" glyph-name="Oslash" horiz-adv-x="628" d="M159 44Q114 92 114 208T155 443T274 631T457 702Q537 702 587 674L671 797L718 776L627 642Q672 589 672 495Q672 360 630 239T509 54T326 -10Q247 -10 199 14L111 -114L69 -89L159 44ZM544
611Q512 634 450 634T342 597Q273 540 233 424T193 202Q193 145 207 116L544 611ZM242 77Q274 58 338 58T451 98Q519 154 555 266T592 490Q592 541 578 570L415 329L242 77Z" />
<glyph unicode="&#xd9;" glyph-name="Ugrave" horiz-adv-x="594" d="M393 930L578 836L544 780L356 866L393 930ZM189 144Q189 58 317 58Q396 58 435 95T493 211L604 692H681L570 211Q544 97 484 44T320 -10Q113 -10 113 134Q113 183 124 225L232 692H309L199
217Q189 177 189 144Z" />
<glyph unicode="&#xda;" glyph-name="Uacute" horiz-adv-x="594" d="M189 144Q189 58 317 58Q396 58 435 95T493 211L604 692H681L570 211Q544 97 484 44T320 -10Q113 -10 113 134Q113 183 124 225L232 692H309L199 217Q189 177 189 144ZM386 785L377 842L605
936L614 871L386 785Z" />
<glyph unicode="&#xdb;" glyph-name="Ucircumflex" horiz-adv-x="594" d="M189 144Q189 58 317 58Q396 58 435 95T493 211L604 692H681L570 211Q544 97 484 44T320 -10Q113 -10 113 134Q113 183 124 225L232 692H309L199 217Q189 177 189 144ZM322 793L486 931H527L623
793H554L500 874L404 793H322Z" />
<glyph unicode="&#xdc;" glyph-name="Udieresis" horiz-adv-x="594" d="M345 812L366 905H435L413 812H345ZM534 812L554 905H623L601 812H534ZM189 144Q189 58 317 58Q396 58 435 95T493 211L604 692H681L570 211Q544 97 484 44T320 -10Q113 -10 113 134Q113
183 124 225L232 692H309L199 217Q189 177 189 144Z" />
<glyph unicode="&#xdd;" glyph-name="Yacute" horiz-adv-x="493" d="M345 785L336 842L564 936L573 871L345 785ZM641 692L348 296L279 0H206L276 302L170 692H248L329 369L558 692H641Z" />
<glyph unicode="&#xde;" glyph-name="Thorn" horiz-adv-x="549" d="M354 194Q481 194 523 359Q531 389 531 417T519 468Q498 510 425 511L270 512L195 194H354ZM442 585Q544 585 582 522Q606 481 606 438T598 359Q574 249 507 185T340 120Q339 120 337 120H178L150
0H76L240 696H314L287 585H442Z" />
<glyph unicode="&#xdf;" glyph-name="germandbls" horiz-adv-x="539" d="M411 728Q575 728 575 608Q575 502 479 456Q431 434 414 421T396 388T407 357T465 316T530 265T548 194Q548 100 490 45T329 -10Q275 -10 222 4L203 9L217 68Q283 55 325 55Q395 55 433
91T472 186Q472 214 458 230T399 274T337 323T321 381T343 443T415 493T482 541T499 599Q499 663 405 663Q341 663 309 631T258 520L136 0H65L190 529Q216 639 266 683T411 728Z" />
<glyph unicode="&#xe0;" glyph-name="agrave" horiz-adv-x="500" d="M217 -10Q89 -10 89 139Q89 222 115 304T202 448T341 510Q402 510 508 492L546 485L470 160Q456 104 446 28L442 2L369 -1Q383 85 387 106Q382 97 358 72T314 31T268 3T217 -10ZM459 431Q389
445 339 445T246 394T185 274T166 151T183 76T234 55T308 87T376 153L402 186L459 431ZM338 741L523 648L490 596L302 682L338 741Z" />
<glyph unicode="&#xe1;" glyph-name="aacute" horiz-adv-x="500" d="M217 -10Q89 -10 89 139Q89 222 115 304T202 448T341 510Q402 510 508 492L546 485L470 160Q456 104 446 28L442 2L369 -1Q383 85 387 106Q382 97 358 72T314 31T268 3T217 -10ZM459 431Q389
445 339 445T246 394T185 274T166 151T183 76T234 55T308 87T376 153L402 186L459 431ZM340 596L333 654L561 748L568 682L340 596Z" />
<glyph unicode="&#xe2;" glyph-name="acircumflex" horiz-adv-x="500" d="M241 587L396 738H449L535 587H460L412 673L323 587H241ZM217 -10Q89 -10 89 139Q89 222 115 304T202 448T341 510Q402 510 508 492L546 485L470 160Q456 104 446 28L442 2L369 -1Q383
85 387 106Q382 97 358 72T314 31T268 3T217 -10ZM459 431Q389 445 339 445T246 394T185 274T166 151T183 76T234 55T308 87T376 153L402 186L459 431Z" />
<glyph unicode="&#xe3;" glyph-name="atilde" horiz-adv-x="500" d="M217 -10Q89 -10 89 139Q89 222 115 304T202 448T341 510Q402 510 508 492L546 485L470 160Q456 104 446 28L442 2L369 -1Q383 85 387 106Q382 97 358 72T314 31T268 3T217 -10ZM459 431Q389
445 339 445T246 394T185 274T166 151T183 76T234 55T308 87T376 153L402 186L459 431ZM486 614Q465 614 418 638T360 662Q339 662 293 630L278 619L275 675Q337 728 374 728Q398 728 443 704T499 680Q518 680 560 710L575 721L580 665Q523 614 486 614Z" />
<glyph unicode="&#xe4;" glyph-name="adieresis" horiz-adv-x="500" d="M266 620L287 713H356L334 620H266ZM456 620L476 713H545L523 620H456ZM217 -10Q89 -10 89 139Q89 222 115 304T202 448T341 510Q402 510 508 492L546 485L470 160Q456 104 446 28L442 2L369
-1Q383 85 387 106Q382 97 358 72T314 31T268 3T217 -10ZM459 431Q389 445 339 445T246 394T185 274T166 151T183 76T234 55T308 87T376 153L402 186L459 431Z" />
<glyph unicode="&#xe5;" glyph-name="aring" horiz-adv-x="500" d="M217 -10Q89 -10 89 139Q89 222 115 304T202 448T341 510Q402 510 508 492L546 485L470 160Q456 104 446 28L442 2L369 -1Q383 85 387 106Q382 97 358 72T314 31T268 3T217 -10ZM459 431Q389
445 339 445T246 394T185 274T166 151T183 76T234 55T308 87T376 153L402 186L459 431ZM378 732Q409 760 449 760T506 740T522 691Q522 683 521 675Q517 626 484 595T406 564T344 592Q334 609 334 628Q334 693 378 732ZM420 709T404 696T384 670T380 648T388 626T417
613T454 627Q477 647 477 674Q477 685 469 697T440 709Z" />
<glyph unicode="&#xe6;" glyph-name="ae" horiz-adv-x="749" d="M441 145Q441 60 531 60Q603 60 676 66L704 69L691 6Q590 -10 503 -10T382 44Q338 25 273 8T166 -10Q103 -10 78 36Q62 65 62 93T67 144Q80 213 124 246T238 290T392 305Q407 349 407 378Q407 437
347 437Q275 437 196 429L167 426L179 495Q293 510 351 510Q461 510 475 436Q536 510 641 510Q782 510 785 375Q785 322 771 272L756 217L451 219Q441 176 441 145ZM139 118Q139 57 190 57Q252 57 366 95Q363 109 363 141T380 244Q308 238 242 230Q160 217 142
146Q139 131 139 118ZM701 278Q712 320 712 339T712 364Q709 442 624 442Q562 442 523 403T464 280L701 278Z" />
<glyph unicode="&#xe7;" glyph-name="ccedilla" horiz-adv-x="406" d="M244 -45Q329 -45 329 -100Q329 -111 326 -124Q307 -211 218 -211Q175 -211 148 -206L138 -204L151 -153Q188 -156 213 -156Q254 -156 264 -120Q269 -101 260 -94T230 -87H191L209 -7Q92 11
92 142Q92 356 208 457Q269 510 355 510Q402 510 462 496L480 491L461 433Q396 445 353 445Q293 445 250 401Q169 320 169 156Q169 106 193 81T272 55Q311 55 364 66L384 70L379 11Q310 -10 248 -10L239 -45H244Z" />
<glyph unicode="&#xe8;" glyph-name="egrave" horiz-adv-x="462" d="M166 103T192 80T256 56Q327 56 402 72L427 78L421 19Q332 -10 250 -10Q91 -10 91 142Q91 281 154 390Q186 444 239 477T360 510Q508 510 508 388Q508 299 441 264T228 228H177Q166 189 166
146ZM242 287Q344 287 389 308T434 387Q434 447 357 447Q234 447 187 287H242ZM258 741L443 648L410 596L222 682L258 741Z" />
<glyph unicode="&#xe9;" glyph-name="eacute" horiz-adv-x="462" d="M166 103T192 80T256 56Q327 56 402 72L427 78L421 19Q332 -10 250 -10Q91 -10 91 142Q91 281 154 390Q186 444 239 477T360 510Q508 510 508 388Q508 299 441 264T228 228H177Q166 189 166
146ZM242 287Q344 287 389 308T434 387Q434 447 357 447Q234 447 187 287H242ZM300 596L293 654L521 748L528 682L300 596Z" />
<glyph unicode="&#xea;" glyph-name="ecircumflex" horiz-adv-x="462" d="M220 587L375 738H428L514 587H439L391 673L302 587H220ZM166 103T192 80T256 56Q327 56 402 72L427 78L421 19Q332 -10 250 -10Q91 -10 91 142Q91 281 154 390Q186 444 239 477T360 510Q508
510 508 388Q508 299 441 264T228 228H177Q166 189 166 146ZM242 287Q344 287 389 308T434 387Q434 447 357 447Q234 447 187 287H242Z" />
<glyph unicode="&#xeb;" glyph-name="edieresis" horiz-adv-x="462" d="M253 620L274 713H343L321 620H253ZM443 620L463 713H532L510 620H443ZM166 103T192 80T256 56Q327 56 402 72L427 78L421 19Q332 -10 250 -10Q91 -10 91 142Q91 281 154 390Q186 444 239
477T360 510Q508 510 508 388Q508 299 441 264T228 228H177Q166 189 166 146ZM242 287Q344 287 389 308T434 387Q434 447 357 447Q234 447 187 287H242Z" />
<glyph unicode="&#xec;" glyph-name="igrave" horiz-adv-x="206" d="M66 0L181 500H256L140 0H66ZM112 741L297 648L264 596L76 682L112 741Z" />
<glyph unicode="&#xed;" glyph-name="iacute" horiz-adv-x="206" d="M66 0L181 500H256L140 0H66ZM194 596L187 654L415 748L422 682L194 596Z" />
<glyph unicode="&#xee;" glyph-name="icircumflex" horiz-adv-x="206" d="M84 587L239 738H292L379 587H303L255 673L166 587H84ZM66 0L181 500H256L140 0H66Z" />
<glyph unicode="&#xef;" glyph-name="idieresis" horiz-adv-x="206" d="M103 620L125 713H194L172 620H103ZM293 620L313 713H382L360 620H293ZM66 0L181 500H256L140 0H66Z" />
<glyph unicode="&#xf0;" glyph-name="eth" horiz-adv-x="517" d="M564 446Q564 405 553 357Q507 165 434 78T248 -9Q155 -9 113 42Q80 83 80 139Q80 153 82 169Q92 286 164 358T338 431Q370 431 406 423T464 405L485 396Q488 416 488 434Q488 534 393 594L279
520L251 566L338 622Q290 641 246 654L275 721Q363 702 418 673L523 741L550 695L468 642Q564 569 564 446ZM470 324Q398 360 329 360T213 307T161 172Q160 162 160 153Q160 65 265 65Q404 65 470 324Z" />
<glyph unicode="&#xf1;" glyph-name="ntilde" horiz-adv-x="498" d="M371 444Q352 444 329 432Q274 403 227 344L217 332L140 0H66L181 500H254L236 413L258 438Q279 462 319 486T397 510Q455 510 485 476T515 388T495 254L436 0H362L420 249Q439 325 439 369Q439
444 371 444ZM464 614Q443 614 396 638T338 662Q317 662 271 630L256 619L253 675Q315 728 352 728Q376 728 421 704T477 680Q496 680 538 710L553 721L558 665Q501 614 464 614Z" />
<glyph unicode="&#xf2;" glyph-name="ograve" horiz-adv-x="494" d="M343 510Q516 510 516 340Q516 247 487 168T398 40T262 -10Q91 -10 91 154Q91 298 162 404T343 510ZM262 55Q342 55 391 139T441 341Q441 389 417 417T343 445Q265 445 216 358T166 153Q166
55 262 55ZM286 741L471 648L438 596L250 682L286 741Z" />
<glyph unicode="&#xf3;" glyph-name="oacute" horiz-adv-x="494" d="M343 510Q516 510 516 340Q516 247 487 168T398 40T262 -10Q91 -10 91 154Q91 298 162 404T343 510ZM262 55Q342 55 391 139T441 341Q441 389 417 417T343 445Q265 445 216 358T166 153Q166
55 262 55ZM302 596L295 654L523 748L530 682L302 596Z" />
<glyph unicode="&#xf4;" glyph-name="ocircumflex" horiz-adv-x="494" d="M235 587L390 738H443L530 587H454L406 673L317 587H235ZM343 510Q516 510 516 340Q516 247 487 168T398 40T262 -10Q91 -10 91 154Q91 298 162 404T343 510ZM262 55Q342 55 391 139T441
341Q441 389 417 417T343 445Q265 445 216 358T166 153Q166 55 262 55Z" />
<glyph unicode="&#xf5;" glyph-name="otilde" horiz-adv-x="494" d="M343 510Q516 510 516 340Q516 247 487 168T398 40T262 -10Q91 -10 91 154Q91 298 162 404T343 510ZM262 55Q342 55 391 139T441 341Q441 389 417 417T343 445Q265 445 216 358T166 153Q166
55 262 55ZM449 614Q428 614 381 638T322 662Q302 662 256 630L241 619L238 675Q300 728 337 728Q361 728 406 704T462 680Q481 680 524 710L538 721L543 665Q486 614 449 614Z" />
<glyph unicode="&#xf6;" glyph-name="odieresis" horiz-adv-x="494" d="M343 510Q516 510 516 340Q516 247 487 168T398 40T262 -10Q91 -10 91 154Q91 298 162 404T343 510ZM262 55Q342 55 391 139T441 341Q441 389 417 417T343 445Q265 445 216 358T166 153Q166
55 262 55ZM262 620L283 713H345L323 620H262ZM445 620L465 713H527L505 620H445Z" />
<glyph unicode="&#xf7;" glyph-name="divide" horiz-adv-x="560" d="M178 281V354H235V402H441V354H497V281H178ZM300 30V131H375V30H300Z" />
<glyph unicode="&#xf8;" glyph-name="oslash" horiz-adv-x="494" d="M344 512Q393 512 429 497L496 605L541 585L469 472Q517 429 517 339T488 170T399 42T263 -8Q213 -8 176 6L104 -111L60 -92L137 30Q92 70 92 156Q92 300 163 406T344 512ZM263 57Q343 57 392
141T442 343Q442 380 427 406L321 239L214 66Q234 57 263 57ZM344 447Q266 447 217 360T167 155Q167 119 180 97L283 259L392 437Q373 447 344 447Z" />
<glyph unicode="&#xf9;" glyph-name="ugrave" horiz-adv-x="498" d="M288 741L473 648L440 596L252 682L288 741ZM216 -10Q158 -10 128 24T98 112T118 246L177 500H251L193 251Q174 175 174 131Q174 56 242 56Q272 56 310 84T372 140L396 168L473 500H547L432
0H359L377 87Q368 76 354 60T297 17T216 -10Z" />
<glyph unicode="&#xfa;" glyph-name="uacute" horiz-adv-x="498" d="M216 -10Q158 -10 128 24T98 112T118 246L177 500H251L193 251Q174 175 174 131Q174 56 242 56Q272 56 310 84T372 140L396 168L473 500H547L432 0H359L377 87Q368 76 354 60T297 17T216 -10ZM313
596L306 654L534 748L541 682L313 596Z" />
<glyph unicode="&#xfb;" glyph-name="ucircumflex" horiz-adv-x="498" d="M220 587L375 738H428L514 587H439L391 673L302 587H220ZM216 -10Q158 -10 128 24T98 112T118 246L177 500H251L193 251Q174 175 174 131Q174 56 242 56Q272 56 310 84T372 140L396 168L473
500H547L432 0H359L377 87Q368 76 354 60T297 17T216 -10Z" />
<glyph unicode="&#xfc;" glyph-name="udieresis" horiz-adv-x="498" d="M248 620L270 713H339L317 620H248ZM438 620L458 713H527L505 620H438ZM216 -10Q158 -10 128 24T98 112T118 246L177 500H251L193 251Q174 175 174 131Q174 56 242 56Q272 56 310 84T372
140L396 168L473 500H547L432 0H359L377 87Q368 76 354 60T297 17T216 -10Z" />
<glyph unicode="&#xfd;" glyph-name="yacute" horiz-adv-x="454" d="M139 500H213L221 64H251L469 500H546L181 -221H105L220 0H152L139 500ZM289 596L282 654L510 748L517 682L289 596Z" />
<glyph unicode="&#xfe;" glyph-name="thorn" horiz-adv-x="483" d="M384 510Q434 510 465 486T504 426T512 370T511 325T498 258Q460 116 399 53T232 -10Q191 -10 163 -6T135 -1L83 -220H13L234 716H305L242 450Q319 510 384 510ZM437 335Q437 439 362 439Q334
439 300 423T244 392L224 377L151 69L245 59Q316 59 357 107T426 259Q437 295 437 335Z" />
<glyph unicode="&#xff;" glyph-name="ydieresis" horiz-adv-x="454" d="M228 620L249 713H318L296 620H228ZM418 620L438 713H507L485 620H418ZM139 500H213L221 64H251L469 500H546L181 -221H105L220 0H152L139 500Z" />
<glyph unicode="&#x2013;" glyph-name="endash" horiz-adv-x="594" d="M109 301H609V235H109V301Z" />
<glyph unicode="&#x2014;" glyph-name="emdash" horiz-adv-x="1094" d="M109 301H1109V235H109V301Z" />
<glyph unicode="&#x2018;" glyph-name="quoteleft" horiz-adv-x="181" d="M252 691H308L217 468H141L252 691Z" />
<glyph unicode="&#x2019;" glyph-name="quoteright" horiz-adv-x="181" d="M199 469H143L234 692H310L199 469Z" />
<glyph unicode="&#x201a;" glyph-name="quotesinglbase" horiz-adv-x="172" d="M42 -134H-14L77 89H153L42 -134Z" />
<glyph unicode="&#x201c;" glyph-name="quotedblleft" horiz-adv-x="338" d="M251 692H307L216 469H140L251 692ZM409 692H465L374 469H298L409 692Z" />
<glyph unicode="&#x201d;" glyph-name="quotedblright" horiz-adv-x="339" d="M199 469H143L234 692H310L199 469ZM357 469H301L392 692H468L357 469Z" />
<glyph unicode="&#x201e;" glyph-name="quotedblbase" horiz-adv-x="325" d="M248 88H304L213 -135H137L248 88ZM82 88H138L47 -135H-29L82 88Z" />
<glyph unicode="&#x2022;" glyph-name="bullet" horiz-adv-x="485" d="M175 106V392H425V106H175Z" />
<glyph unicode="&#x2039;" glyph-name="guilsinglleft" horiz-adv-x="256" d="M307 409L285 332L154 245L242 149L222 80L80 229L94 267L307 409Z" />
<glyph unicode="&#x203a;" glyph-name="guilsinglright" horiz-adv-x="257" d="M63 80L85 157L216 244L128 340L148 409L290 260L276 222L63 80Z" />
</font>
</defs>
</svg>
